(navigation image)
Home Audio Books & Poetry | Community Audio | Computers & Technology | Grateful Dead | Live Music Archive | Music, Arts & Culture | Netlabels | News & Public Affairs | Non-English Audio | Podcasts | Radio Programs | Spirituality & Religion
Search: Advanced Search
Anonymous User (login or join us)
Upload

Listen to audio

item image

Stream (help[help])

VBR M3U
MP3 via M3U

Play / Download (help[help])

VBR ZIP

Ogg Vorbis

Lossless zip


All Files: HTTPS Torrent (2/0)

Resources

Bookmark

Dub ApocalypseDub Apocalypse Live at Lizard Lounge on 2011-03-11 (March 11, 2011)

something has gone horribly wrong 8-p
Prefer flash? · Embed · Questions/Feedback?


Collection: DubApocalypse
Band/Artist: Dub Apocalypse
Date: March 11, 2011 (check for other copies)
Venue: Lizard Lounge
Location: Cambridge, MA

Source: Schoeps MK22>KC5>CMC6>Sonosax SX-M2>Apogee Mini-me(aes out,24bit/96khz)>COAX>Edirol R-44 + Soundboard>R-44
Lineage: SDHC Card>USB>Macbook Pro>Audacity(mixing)>Wave Editor(tracking,fades,resample(izotope)/dither(mbit+)to 16 bit/44.1k)>XAct(FLAC 8,ffp,fix sbe)
Taped by: Andy Murray
Transferred by: Andy Murray


Description

???

Notes

Dub Apocalypse
2011-03-11
Lizard Lounge
Cambridge, MA

Recorded and transferred by Andy Murray

DFC NOS On Stage
Schoeps MK22>KC5>CMC6>Sonosax SX-M2>Apogee Mini-me(aes out,24bit/96khz)>COAX>Edirol R-44 + Soundboard>R-44

SDHC Card>USB>Macbook Pro>Audacity(mixing)>Wave Editor(tracking,fades,resample(izotope)/dither(mbit+)to 16 bit/44.1k)>XAct(FLAC 8,ffp,fix sbe)

Tommy Bennedetti - Drums
Johnny Trama - Guitar
Benjamin Zecker - Keys
Dana Colley - Saxophone
Aaron Bellamy - Bass
Dj Mr. Rourke

Opened for Club d'Elf

1 Disc
1 Set

length expanded size cdr WAVE problems fmt ratio filename
0:52.35 9255164 B --- -- ----- dubapoc2011-03-11_mk22matrix_1644_d1t01.wav
9:52.53 104553500 B --- -- ----- dubapoc2011-03-11_mk22matrix_1644_d1t02.wav
10:17.27 108902348 B --- -- ----- dubapoc2011-03-11_mk22matrix_1644_d1t03.wav
9:02.68 95768780 B --- -- ----- dubapoc2011-03-11_mk22matrix_1644_d1t04.wav
10:46.12 113982668 B --- -- ----- dubapoc2011-03-11_mk22matrix_1644_d1t05.wav
7:56.48 84079340 B --- -- ----- dubapoc2011-03-11_mk22matrix_1644_d1t06.wav
7:12.26 76265996 B --- -- ----- dubapoc2011-03-11_mk22matrix_1644_d1t07.wav
56:00.44 592807796 B 1.0000 (7 files)

Individual Files

Whole Item FormatSize
[generated M3U] M3U Stream 
Audio Files Flac VBR MP3 Ogg Vorbis
d1t01 2.8 MB 
1.1 MB 
573.1 KB 
d1t02 53.6 MB 
14.3 MB 
6.7 MB 
d1t03 52.8 MB 
14.9 MB 
7.0 MB 
d1t04 45.8 MB 
12.9 MB 
6.1 MB 
d1t05 58.8 MB 
15.6 MB 
7.4 MB 
d1t06 40.1 MB 
11.5 MB 
5.3 MB 
d1t07 38.1 MB 
10.2 MB 
4.9 MB 
Information FormatSize
dubapoc2011-03-11.Schoeps_mk22matrix_16bit.ffp Flac FingerPrint 546.0 B 
dubapoc2011-03-11.Schoeps_mk22matrix_16bit.md5 Checksums 553.0 B 
dubapoc2011-03-11.Schoeps_mk22matrix_16bit_files.xml Metadata [file] 
dubapoc2011-03-11.Schoeps_mk22matrix_16bit_meta.xml Metadata 3.0 KB 
dubapoc2011-03-11.Schoeps_mk22matrix_16bit_reviews.xml Metadata 506.0 B 
Other Files Archive BitTorrent Text
dubapoc2011-03-11.Schoeps_mk22matrix_16bit_archive.torrent 22.3 KB 
info 1.8 KB 
ffp 546.0 B 

Write a review
Downloaded 861 times
Reviews
Average Rating: 5.00 out of 5 stars5.00 out of 5 stars5.00 out of 5 stars5.00 out of 5 stars5.00 out of 5 stars

Reviewer: Shrodingers Cat - 5.00 out of 5 stars5.00 out of 5 stars5.00 out of 5 stars5.00 out of 5 stars5.00 out of 5 stars - March 17, 2011
Subject: Stonking Stuff.......
Great sound, tight band....lovely.